Monday, May 15, 2017

NEW: Ozzy Osbourne live in London 2010 - 1DVD - September 18 - pro-shot

Artist:
Ozzy Osbourne

Show or Bootleg Title:
2010-09-18 Ozzfest, 02 Arena, London, England (Rodders Vers.)

Source:
Video - Pro Shot


Audio/Video Specs:
Video
ID : 224 (0xE0)
Format : MPEG Video
Format version : Version 2
Format profile : Main@Main
Format settings, BVOP : Yes
Format settings, Matrix : Default
Format settings, GOP : Variable
Format settings, picture structure : Frame
Bit rate mode : Variable
Bit rate : 7 661 Kbps
Maximum bit rate : 8 182 Kbps
Width : 720 pixels
Height : 576 pixels
Display aspect ratio : 4:3
Frame rate : 25.000 fps
Standard : PAL
Color space : YUV
Chroma subsampling : 4:2:0
Bit depth : 8 bits
Scan type : Interlaced
Scan order : Top Field First
Compression mode : Lossy
Bits/(Pixel*Frame) : 0.739
Time code of first frame : 00:00:00:00
Time code source : Group of pictures header
Stream size : 836 MiB (82%)
Writing library : TMPGEnc Authoring Works 4 Version. 4.0.7.32
Color primaries : BT.601 PAL
Transfer characteristics : BT.470 System B, BT.470 System G
Matrix coefficients : BT.601

Audio
ID : 189 (0xBD)-160 (0xA0)
Format : PCM
Format settings, Endianness : Big
Format settings, Sign : Signed
Muxing mode : DVD-Video
Bit rate mode : Constant
Bit rate : 1 536 Kbps
Channel(s) : 2 channels
Sampling rate : 48.0 KHz
Bit depth : 16 bits
Stream size : 168 MiB (16%)



Setlist/Chapters:
01. Interviews
02. Let Me Hear You Scream
03. Mr.Crowley
04. I Don't Know
05. Fairies Wear Boots
06. Crazy Train
07. Paranoid


Band:
Ozzy Osbourne - Vocals
Gus G.– Lead Guitar
Adam Wakeman – Keyboards, Rhythm Guitar
Rob "Blasko" Nicholson – Bass
Tommy Clufetos – Drums

Lenght:33.52

Created and edited by Roddershimself

Menu : YES
Chapters : YES
Artwork : YES

Download part 1 here
Download part 2 here
Download part 3 here
                 

No comments:

Post a Comment