Tuesday, May 23, 2017

NEW: Dio live in Milwaukee 1994 - 1DVD - July 10

Dio
Summerfest Grounds, Milwaukee, WI, USA 1994-7-10
Setlist

    Jesus Mary & The Holy Ghost
   Strange Highways
   Don't Talk to Strangers
   Pain
   Guitar Solo
   The Mob Rules
   (Black Sabbath cover)
   Holy Diver
   Man on the Silver Mountain
   (Rainbow cover)
   Drum Solo
   Heaven and Hell
   (Black Sabbath cover)
   Evilution
   Give Her the Gun
   Stand Up and Shout
   The Last in Line
   Rainbow in the Dark
   We Rock
   Here's to You



General
Complete name                  : H:\DIO-1994.7.10.Summerfest Grounds, Milwaukee, WI, USA-Vers JAYTOR 2112 Upgrade Audio\VIDEO_TS\VTS_01_1.VOB
Format                         : MPEG-PS
File size                      : 1 024 MiB
Duration                       : 22mn 53s
Overall bit rate mode          : Variable
Overall bit rate               : 6 255 Kbps

Video
ID                             : 224 (0xE0)
Format                         : MPEG Video
Format version                 : Version 2
Format profile                 : Main@Main
Format settings, BVOP          : Yes
Format settings, Matrix        : Custom
Format settings, GOP           : M=3, N=15
Duration                       : 22mn 53s
Bit rate mode                  : Variable
Bit rate                       : 5 747 Kbps
Maximum bit rate               : 9 586 Kbps
Width                          : 704 pixels
Height                         : 480 pixels
Display aspect ratio           : 4:3
Frame rate                     : 29.970 fps
Standard                       : NTSC
Color space                    : YUV
Chroma subsampling             : 4:2:0
Bit depth                      : 8 bits
Scan type                      : Interlaced
Scan order                     : Top Field First
Compression mode               : Lossy
Bits/(Pixel*Frame)             : 0.567
Time code of first frame       : 00:00:00:00
Time code source               : Group of pictures header
Stream size                    : 941 MiB (92%)
Color primaries                : BT.601 NTSC
Transfer characteristics       : BT.601
Matrix coefficients            : BT.601

Audio
ID                             : 192 (0xC0)
Format                         : MPEG Audio
Format version                 : Version 1
Format profile                 : Layer 2
Duration                       : 22mn 52s
Bit rate mode                  : Constant
Bit rate                       : 384 Kbps
Channel count                  : 2 channels
Sampling rate                  : 48.0 KHz
Compression mode               : Lossy
Delay relative to video        : -67ms
Stream size                    : 62.9 MiB (6%)

Download part 1 here
Download part 2 here
Download part 3 here
Download part 4 here
Download part 5 here
                     

No comments:

Post a Comment