Tuesday, September 19, 2017

NEW: Dio live in New Haven 1990 - 2DVD - August 3

DIO
New Haven Coliseum
New Haven, CT
August 3, 1990
CBG Classic Master Video Series Vol. 56 Redo

Contrast Clause: This version is a Redo of the audio tracks to a much better WM-D6C audio compared to the previous version I uploaded. The video mix is unchanged.

audio #1: (CBG) Aiwa-CM30A mic / Sony WM-D6C / cassette / EQ Bass boost; 1536 bit LPCM

audio #2: (CBG) Aiwa-CM30A mic / Sony WM-D6C / cassette / No EQ; 320 bit .ac3.

video #1: (CBG) Sony Handycam CCD-TR5 8mm camcorder (w/ 2X teleconverter lens) master 8mm analog tape; NTSC, 4:3 PAR, 29.97 fps; transferred to harddrive via a firewire using a Sony TRV-330 8mm digital camera w/ Time Base Correction.

video #2: (unknown) audience recording of unknown lineage; VHS tape (best guess 3rd gen); NTSC, 4:3 PAR, 29.97 fps; captured using a JVC S-VHS HR-S8007UM VCR connected to a Canopus ADVC-110 via an S-Video cable; Canopus ADVC-110 connected to the computer via firewire; video capture done with Sony Vegas Pro 13.

Video capture, editing, and 2-pass VBR encoding done with Sony Vegas Pro 13 at 8K max, 7.8K avg, 1K min (both discs); authored to DVD in Sony DVD Architect Pro 6.

Video editing, mixing, audio synching and DVD authoring by Silver Stallion (AKA guitard on Dime).

running time: 1 hr 40 mins (full show)

disc 1 (53 mins)
1. intro
2. Wild One
3. Children Of The Sea
4. Man On The Silver Mountain
5. Tarot Woman
6. Jens keyboard solo
7. Stargazer
8. Long Live Rock 'N' Roll
9. Born On The Sun
10. Stand Up And Shout
11. Why Are They Watching Me
12. Rowan guitar solo
13. Don't Talk To Strangers

disc 2 (47 mins)
14. Lock Up The Wolves
15. Hey Angel
16. The Last In Line
17. Heaven And Hell
18. Rainbow In The Dark
19. Egypt (The Chains Are On)
20. Holy Diver
21. We Rock

Ronnie James Dio - vocals
Rowan Robertson - guitar
Simon Wright - drums
Teddy Cook - bass
Jens Johannson - keyboards

Download part 1 here
Download part 2 here
Download part 3 here
Download part 4 here
Download part 5 here
Download part 6 here
Download part 7 here
Download part 8 here
                         

Saturday, September 2, 2017

NEW: Black Sabbath live in Chicago 2012 - 1DVD - August 3 - multi-cam

Black Sabbath
Reunion Tour 2012
Chicago, IL, Grant Park, Lollapalooza
August 3, 2012
A Wrong Man DVD Creation (MULTICAM)

VIDEO SPECS
ID                          : 224 (0xE0)
Format                      : MPEG Video
Format version              : Version 2
Format profile              : Main@Main
Format settings, BVOP       : Yes
Format settings, Matrix     : Custom
Format settings, GOP        : M=3, N=15
Duration                    : 24 min 8 s
Bit rate mode               : Variable
Bit rate                    : 4 278 kb/s
Maximum bit rate            : 8 000 kb/s
Width                       : 720 pixels
Height                      : 480 pixels
Display aspect ratio        : 16:9
Frame rate                  : 29.970 (30000/1001) FPS
Standard                    : NTSC
Color space                 : YUV
Chroma subsampling          : 4:2:0
Bit depth                   : 8 bits
Scan type                   : Progressive
Compression mode            : Lossy
Bits/(Pixel*Frame)          : 0.413
Time code of first frame    : 00:00:00:00
Time code source            : Group of pictures header
GOP, Open/Closed            : Closed
Stream size                 : 738 MiB (72%)
Color primaries             : BT.601 NTSC
Transfer characteristics    : BT.601
Matrix coefficients         : BT.601

AUDIO SPECS
ID                          : 189 (0xBD)-160 (0xA0)
Format                      : PCM
Format settings, Endianness : Big
Format settings, Sign       : Signed
Muxing mode                 : DVD-Video
Duration                    : 24 min 7 s
Bit rate mode               : Constant
Bit rate                    : 1 536 kb/s
Channel(s)                  : 2 channels
Sampling rate               : 48.0 kHz
Bit depth                   : 16 bits
Stream size                 : 265 MiB (26%)

SET LIST:
Intro
Black Sabbath
The Wizard
Behind The Wall of Sleep
N.I.B.
Into The Void
Under The Sun
Snowblind
War Pigs
Electric Funeral
Sweet Leaf
Sympton of The Universe / Drum Solo
Iron Man
Fairies Wear Boots
Dirty Man
Children of the Grave
Sabbath Bloody Sabbath
Paranoid

Download part 1 here
Download part 2 here
Download part 3 here
Download part 4 here
Download part 5 here
                       

NEW: Black Sabbath live at Rockwave Festival 2005 - 1DVD - June 25

Black Sabbath
Rockwave Festival
Malakasa, Greece
June 25, 2005

VIDEO SPECS:
ID: 224 (0xE0)
Format: MPEG Video
Format version: Version 1
Bit rate mode: Variable
Width: 720 pixels
Height: 480 pixels
Display aspect ratio: 4:3
Frame rate: 29.970 fps
Standard: NTSC
Compression mode: Lossy

AUDIO SPECS:
Audio: Dolby AC3 48000Hz stereo [AC3]

Set List:
Intro
N.I.B.
After Forever
War Pigs
Dirty Women
Fairies Wear Boots
riffs)
Electric Funeral
Iron Man
Into The Void
Black Sabbath
The Wizard
(riffs)
Paranoid
Sleeping Village
Children Of The Grave

Download part 1 here
Download part 2 here
Download part 3 here
Download part 4 here
                       

Wednesday, August 23, 2017

RE-UP: Black Sabbath live at Download Festival 2005 - 1DVD - June 11 - pro-shot

Artist:
Black Sabbath

Show or Bootleg Title:
2005-06-11 - Download Festival, Donington, England

Source:
Video - Pro Shot


Audio/Video Specs:
Video Attributes:
Video compression mode: MPEG-2
TV system: 525/60 (NTSC)
Aspect Ratio: 4:3
Display Mode: Only Letterbox
Source picture resolution: 720x480 (525/60)
Frame Rate: 30.00
Source picture letterboxed: Not letterboxed
Bitrate: 5.98Mbps

Audio Attributes:
Audio Coding mode: Dolby Digital
Sampling Rate: 48kHz
Audio application mode: Not specified
Number of Audio channels: 2.0
Bitrate: 192 Kbps
Number of Audio streams: 1

Setlist/Chapters:
1. NIB
2. After Forever
3. War Pigs
4. Fairies Wear Boots
5. Dirty Women
6. Sweet Leaf/Symptom of the Universe(Instrumental)
7. The Wizard
8. Iron Man
9. Black Sabbath
10. Into the Void
11. Sabbath Bloody Sabbath(Intro) / Paranoid

Download part 1 here
Download part 2 here
Download part 3 here
Download part 4 here
Download part 5 here
                       

NEW: Black Sabbath live in West Palm Beach 2001 - 1DVD - July 13

BLACK SABBATH
Mars Music Amphitheater
West Palm Beach, Florida, USA
July 13, 2001

Lineage: unknown gen VHS cassette (2-cam edit done on VHS)>.avi>premiere edit>VIDEO TS (using Ulead)>DVD-R>DVDShrink (lossless extraction)>VIDEO TS

Band:
Ozzy Osbourne
Tony Iommi
Geezer Butler
Bill Ward
with Geoff Nicholls

Setlist (1:19:43):
intro
N.I.B.
Snowblind
Scary Dreams
War Pigs
Iron Man
Into The Void
The Wizard
Black Sabbath
Paranoid
Children Of The Grave

Download part 1 here
Download part 2 here
Download part 3 here
                       

NEW: Black Sabbath live in Helsinki 1999 - 1DVD - December 12

Artist:
Black sabbath

Show or Bootleg Title:
Helsinki, Finland 1999-12-12

Show Venue:
Icehall,Finland

Source:
DVD - Audience

Video Quality/Production Info:
Video: A-, Audiio: A-

Audio/Video Specs:
General
Format : MPEG-PS
File size : 918 MiB
Duration : 26mn 1s
Overall bit rate mode : Variable
Overall bit rate : 4 931 Kbps

Video
ID : 224 (0xE0)
Format : MPEG Video
Format version : Version 2
Format profile : Main@Main
Format settings, BVOP : Yes
Format settings, Matrix : Custom
Format settings, GOP : M=3, N=12
Format settings, picture struc : Frame
Duration : 26mn 1s
Bit rate mode : Variable
Bit rate : 4 577 Kbps
Maximum bit rate : 9 396 Kbps
Width : 720 pixels
Height : 576 pixels
Display aspect ratio : 4:3
Frame rate : 25.000 fps
Standard : PAL
Color space : YUV
Chroma subsampling : 4:2:0
Bit depth : 8 bits
Scan type : Interlaced
Scan order : Top Field First
Compression mode : Lossy
Bits/(Pixel*Frame) : 0.441
Time code of first frame : 00:26:47:13
Time code source : Group of pictures header
GOP, Open/Closed : Open
Stream size : 852 MiB (93%)

Audio
ID : 189 (0xBD)-128 (0x80)
Format : AC-3
Format/Info : Audio Coding 3
Mode extension : CM (complete main)
Format settings, Endianness : Big
Muxing mode : DVD-Video
Duration : 26mn 1s
Bit rate mode : Constant
Bit rate : 256 Kbps
Channel(s) : 2 channels
Channel positions : Front: L R
Sampling rate : 48.0 KHz
Frame rate : 31.250 fps (1536 spf)
Compression mode : Lossy
Delay relative to video : -464ms
Stream size : 47.7 MiB (5%)

Menu

Format:
PAL

Set List/Chapters:
This is a show that i transfer from my vhs-collection to dvd format.

War Pigs
N.I.B.
Fairies Wear Boots
After Forever
Electric Funeral
Sweet Leaf
Into the Void
Guitar Solo
Snowblind
Dirty Women
Tomorrow's Dream
Black Sabbath
Iron Man
Children of the Grave

Download part 1 here
Download part 2 here
Download part 3 here
Download part 4 here
                 

NEW: Black Sabbath live in Karlshamn 1995 - 1Dual-Layer - June 16

"BLACK SABBATH

Karlshamn, SWE
Bellevueparken
1995-06-16

source: AUD PAL DualLayer DVD from 1st gen VHS, transferred february 2013 by tolvis
length: 76.00 + 3.30

I finally got to borrow a true 1st gen of my first Sabbathgig. Its not the best Ive seen but it was to be the only time I got to see Cozy Powell live. I spent the afternoon chatting away with him at the hotel, a great guy.

The quality is very nice, the sound was pretty good to begin with (as you can see in the sampleclip) but I beefed up the bass a bit and removed the very shrillest frequencies to provide an overall better listening experience.

As a bonus, since many have asked me for it, I added the lossless clip of Esbjerg 1995. I honestly didnt think too many people would be interested in this but the amount of emails and pms I got over it simply meant I had to add it. I hope you will all enjoy it.

setlist:
Children of the grave (cuts in)
Neon knights
The shining
The wizard
War pigs
Headless cross
Rusty angels
When death calls
I wont cry for you
The mob rules
Black sabbath
Paranoid
Iron man (cuts in)
Sabbath bloody sabbath

BONUS: Paranoid, live at Esbjerg Rock Festival 1995-06-04

Download part 1 here
Download part 2 here
Download part 3 here
Download part 4 here
Download part 5 here
Download part 6 here
                 

Friday, August 11, 2017

NEW: Dio live in Detroit 2000 - 1DVD - December 2

Dio
Harpos
Detroit, Michigan
December 2nd, 2000

Setlist:
Sunset Superman
Invisible
Stand Up and Shout
Don't Talk to Strangers
All the Fools Sailed Away
Discovery
Magica Theme
Lord of the Last Day
Fever Dreams
Feed My Head
Eriel
Guitar Solo
Challis
As Long As It's Not About Love
Losing My Insanity
Otherworld
Magica (Reprise)
Holy Diver
Rainbow in the Dark
The Mob Rules
The Last in Line
Man on the Silver Mountain
Long Live Rock 'n' Roll
We Rock

miniDV master>DVDR>Tsunami

- Audio Codec: LPCM
- Video System: NTSC 29.97 fps
- Video Bitrate: 4377 kbps

Download part 1 here
Download part 2 here
Download part 3 here
Download part 4 here
Download part 5 here
                     

NEW: Black Sabbath live in Mansfield 1999 - 1DVD - June 16

Black Sabbath
1999-06-16
Tweeter Center,Mansfield,Massachusettes,USA
Video Audience (NTSC)

Total Time: 89min

Line Up:
Tony Iommi-guitars
Geezer Butler-bass
Bill Ward-drums
Ozzy Osbourne-vocals
Geoff Nicholls-keyboards

SetList:
01-War Pigs
02-N.I.B
03-Faires Wear Boots
04-After Forever
05-Electric Funeral
06-Into The Void
07-Guitar Solo
08-Snowblind
09-Black Sabbath
10-Iron Man
11-Children Of The Grave
12-Paranoid

Download part 1 here
Download part 2 here
Download part 3 here
Download part 4 here
                     

Monday, August 7, 2017

NEW: Black Sabbath live in Sao Paulo 1994 - 1DVD - August 27 - pro-shot

"Black Sabbath - Sao Paulo 94 dvd ntsc pro shot

Bill Ward (no mistake here, its really Bill Ward)
Geezer Butler
Tony Iommi
Tony Martin
Geoff Nichols

this is not the whole show, but only the songs that were broadcasted, they maybe not in the correct order of the show
the keyboards are sometimes a little too strong in the mix ... the transition between the songs is not smooth sometimes.
quality  VG-

a Bartstoppeleinseifundentfernungsmaschine Production
(a division of Boss of Bootlegs and Alternativa K.K.)
this is actually the second Bartstoppeleinseifundentfernungsmaschine production

CAPTURED BY BOSS (COIFFEUR)
with menu and chapters (by Geophagus)

I dont have the artwork, feel free to make one and post here


* Video Info *
**************
Compression: MPEG-2
TV system: NTSC
Aspect ratio: 4:3
TV system: not specified
Display mode: 720x480

MinDataRate (B/s): 636068
AvgDataRate (B/s): 713094
MaxDataRate (B/s): 778816


* Audio Info *
**************
Audio MPEG1(2Ch) 48kHz 20bit

Download part 1 here
Download part 2 here
                       

NEW: Black Sabbath live in Mississauga 1994 - 1DVD - February 13

BLACK SABBATH
The World Niteclub
Mississauga, Ontario, Canada
February 13, 1994

lineage: unknown gen VHS>VIDEO TS (using ClickToDVD)>DVD-R>DVDShrink(lossless extraction)>VIDEO TS

Band:
Tony Iommi
Geezer Butler
Tony Martin
Bobby Rondinelli
Geoff Nicholls

Tracklist (1:36:22):
Intro
Time Machine
Children Of The Grave
Children of the Sea
I Witness
The Mob Rules
Into The Void
Psychophobia
Black Sabbath
Neon Knights
Immaculate Deception
The Wizard
Cross Of Thorns
Symptom Of The Universe
Headless Cross
Paranoid
Iron Man
Sabbath Bloody Sabbath

Notes: Another from the Gary's Black Sabbath batch; this one is pretty close, but, with lots of obstructions. The sound is very
good, and if you can handle feeling like you're right in the pit, this is a fun one to watch. The Cross Purposes tour featured
a great setlist, with Tony Martin singing rarely heard songs from across the Sabbath discography, including an encore of the full
version of Sabbath Bloody Sabbath. I completed this transfer April 18, 2004 - less than a week before I got married!

Download part 1 here
Download part 2 here
Download part 3 here
                     

Friday, July 28, 2017

NEW: Dio live in Helsinki 2005 - 1DVD - December 8

Dio 2005-12-08 Helsingin Jäähalli, Helsinki

This concert was part of Dio/Uriah Heep/Asia Tour, so setlist is little bit shorter compared to shows from september
and october...

Setlist:

01 Tarot Woman
02 Voodoo
03 The Eyes
04 Stand Up and Shout
05 Holy Diver
06 Gypsy
07 Caught in the Middle
08 Don't Talk to Strangers
09 Rainbow in the Dark
10 Gates of Babylon
11 Heaven and Hell
12 Man on the Silver Mountain-Long Live Rock 'n' Roll
13 The Last in Line
14 We Rock

Very good audience video recorded from left side of arena.


Technical specifications:

PAL 25 fps
720/576
4:3

Average video bitrate: 5 863 Kbps
Audio track: MPEG Audio 384 Kbps

Download part 1 here
Download part 2 here
Download part 3 here
Download part 4 here
Download part 5 here
                     

NEW: Dio live in Jekaterinburg 2005 - 2DVD - September 13

Dio -
Live at KKT Cosmos, Jekaterinburg, Russia
13th September 2005

This is audience DVD shot with SBD audio added. Quality of filming is quite good, sound quality is of course perfect.
This version was made by Klaus (Wrongman). So big thanks to him!

One Of Dio's longest show ever
Total time about 2:20

DVD 1
01 INTRO
02 TAROT WOMAN
03 THE SIGN OF THE SOUTHERN CROSS
04 ONE NIGHT IN THE CITY
05 EVIL EYES
06 OVERTURE TO HOLY DIVER
07 STAND UP AND SHOUT
08 HOLY DIVER
09 GYPSY
10 DRUMS SOLO
11 CAUGHT IN THE MIDDLE
12 DON'T TALK TO STRANGERS
13 STRAIGHT THROUGH THE HEART
14 INVISIBLE
15 RAINBOW IN THE DARK

DVD 2
01 SHAME ON THE NIGHT
02 GUITAR SOLO~SHAME ON THE NIGHT (reprise)
03 HOLY DIVER (reprise)
04 GATES OF BABYLON
05 HEAVEN AND HELL
06 MAN ON THE SILVER MOUNTAIN
07 LONG LIVE ROCK'N'ROLL
08 THE LAST IN LINE
09 WE ROCK
10 THE MOB RULES
11 NEON KNIGHTS

Tech. info:
PAL 25fps
720/576,
Aspect ratio 4:3
Average video bitrate: 5715 Kbps
Audio track: PCM 1536 Kbps

Download part 1 here
Download part 2 here
Download part 3 here
Download part 4 here
Download part 5 here
Download part 6 here
Download part 7 here
Download part 8 here
                     

Wednesday, July 5, 2017

FLAC: Black Sabbath "Earth Studio Sessions 1969"- 1CD

Black Sabbath - Earth Studio Sessions

All files were never officially released!!

Silver CD > EAC > WAV > Flac Level 0 > you

Enjoy!

Aurйlio ZZaura

------------

This album is a collection of samples and studio sessions played by the pre-Black Sabbath band called "Earth".

Tracklist

1 - Unknown Demo
2 - Early One Morning
3 - The Rebel (Sample)
4 - When i Came Down (Sample)
5 - Thomas Jam (With Jim Simpson)

Cover Art Included

Length: 17 min
Line up: Ozzy osbourne, Tony Iommi, Geezer Butler, Bill Ward and Jim Simpson

Download this bootleg here
                   

FLAC: Black Sabbath live in Birmingham 2017 - 2CD - February 2

Band: Black Sabbath
Date: February 2nd, 2017
Location: Birmingham, UK
Venue: Genting Arena
Taper: Barghest

Equipment: SP-CMC-8->SP-SPSB-11-> Edirol R-09HR -> WAV [96 kHz/24 bit dithering to 44kHZ/16 bit]
Lineage: WAV -> Adobe Audition (Limiting- Gain - Track Splitting) -> FLAC

00 Intro
01 Black Sabbath
02 Fairies Wear Boots
03 After Forever
04 Under the Sun
05 Into the Void
06 Snowblind
07 War Pigs
08 Behind the Wall of Sleep
09 N.I.B.
10 Hand of Doom
11 Supernaut / Sabbath Bloody Sabbath / Megalomania (Instrumental medley)
12 Rat Salad
13 Iron Man
14 Dirty Women
15 Children of the Grave

Encore
16 Paranoid


Total playing time: 1 hr 50 min 51 sec

Tony Iommi – lead guitar (1968–present)
Geezer Butler – bass guitar (1968–1979, 1980–1985, 1987, 1990–1994, 1997–present)
Ozzy Osbourne – lead vocals (1968–1977, 1978–1979, 1985, 1997–present)

Touring musicians
Tommy Clufetos – drums (2012–present)
Adam Wakeman - keyboards, rhythm guitar (2004-2005, 2011-present)

Download this bootleg here
                 

FLAC: Black Sabbath live in San Antonio 2016 - 2CD - November 12

Black Sabbath
November 12, 2016
AT&T Center, San Antonio TX

**Last ever show in USA**

Audience recording
TASCAM DR-40 (44/16) > Audacity (track splits, normalized) > wav > flac

Location: Section 8, Row 10 (10 rows up from the floor, front of soundboard)

Recorded and mastered by exene/bluejane99
Pics included.

setlist:

00) intro
01) Black Sabbath
02) Fairies Wear Boots
03) After Forever
04) Into the Void
05) Snowblind
06) War Pigs
07) Behind the Wall of Sleep/Geezer solo "Bassically"
08) N.I.B.
09) Rat Salad/Tommy drum solo
10) Iron Man
11) Dirty Woman
12) Children of the Grave
encore:
13) Paranoid

Download this bootleg here
                     

FLAC: Black Sabbath live in Riga 2016 - 2CD - July 5

Band: Black Sabbath
Date: July 5th, 2016
Location: Riga, Latvia
Venue: Arēna Rīga
Taper: Barghest

Equipment: SP-CMC-8->SP-SPSB-11-> Edirol R-09HR -> WAV [96 kHz/24 bit dithering to 44kHZ/16 bit]
Lineage: WAV -> Adobe Audition (Limiting- Gain - Track Splitting) -> FLAC

00 Intro
01 Black Sabbath
02 Fairies Wear Boots
03 After Forever
04 Into the Void
05 Snowblind
06 War Pigs
07 Behind the Wall of Sleep
08 N.I.B.
09 Hand of Doom
10 Rat Salad
11 Iron Man
12 Dirty Women
13 Children of the Grave

Encore
14 Paranoid


Total playing time: 1 hr 39 min 00 sec

Tony Iommi – lead guitar (1968–present)
Geezer Butler – bass guitar (1968–1979, 1980–1985, 1987, 1990–1994, 1997–present)
Ozzy Osbourne – lead vocals (1968–1977, 1978–1979, 1985, 1997–present)

Touring musicians
Tommy Clufetos – drums (2012–present)
Adam Wakeman - keyboards, rhythm guitar (2004-2005, 2011-present)

Download this bootleg here
                 

FLAC: Black Sabbath live in Chicago 1995 - 2CD - July 7 - soundboard

BLACK SABBATH

Live in Chicago USA , World Music Theater - 07th July 1995

QUALITY :SOUNBOARD

Taken from deliderated Bootleg - BLACK SABBATH - BLOODY WIZARD - Langley

Tranformed in Flac 8 Best with AVS Audio Converter 6 -

two channels of 16-bit samples at 44100 samples per second

CD 1

TRACKS :

01 . Children Of The Grave
02.  Neon Knights
03.  The Shining
04.  The Wizard
05.  Get A Grip
06.  Headless Cross
07.  Iommi Solo / Rusty Angels
08.  When Death Calls

RUNNING TIME : 47:44

CD 2

TRACKS :

01.  Sabbath Bloody Sabbath
02.  Can't Get Close Enough
03.  War Pigs
04.  Mob Rules
05.  Black Sabbath
06.  Heaven And Hell
07.  Iron Man (encore )

RUNNING TIME : 47:02

'Paranoid' is missing due to tape running out

Line Up :

Tony Martin - Vocals
Tony Iommi - Guitar
Neil Murray - Bass
Cozy Powell - Drums
Geoff Nicholls - Keyboards

Download this bootleg here
                 

FLAC: Black Sabbath live in Buenos Aires 1994 - 1CD - September 3 - soundboard

Black Sabbath
1994-09-03
River Plate Stadium
Buenos Aires, Argentina
SBD
"Live in Buenos Aires 1994" (Black Records BR-14558533-2)
Silver CD
FLAC

Running time:
71:25 min

Artwork:
Included

Featuring the legendary Bill Ward on drums, who replaced Bobby Rondinelli for the South American leg of that tour. A rather serious drawback of this fact is that they did not play any song from Cross Purposes! Possibly Bill had problems with the new material?

The artwork shows 13 tracks, but actually Symptom Of The Universe + The Headless Cross are merged in one track, so we only have 12 altogether. Obviously someone made a mistake when they prepared the audio files for the press.

Sound is great, but extremely 'dry' SBD sound - which is sometimes strange between songs, because you hear Tony Martin talking to the crowd, but you hardly hear the crowd at all. I checked for lossiness, and this is perfectly lossless, as shown in the spectral image (also included).

Tracklist:
01. Supertzar
02. Children Of The Grave
03. Children Of The Sea
04. Into The Void
05. Black Sabbath
06. Neon Knights
07. War Pigs
08. The Wizard
09. Symptom Of The Universe + The Headless Cross
10. Paranoid
11. Iron Man
12. Sabbath Bloody Sabbath

Line-up:
Tony Martin - Vocals
Tony Iommi - Guitar
Geezer Butler - Bass
Bill Ward - Drums
Geoff Nichols - Keyboard

Download this bootleg here
                 

FLAC: Black Sabbath live in Boston 1992 - 2CD - August 9 - soundboard

BAND: Black Sabbath
VENUE: Orpheum Theater, Boston
DATE: 1992-08-09 (August)
SOURCE: FM broadcast
LINEAGE: Trade CD-R (unknown gen) -> WAV (EAC) -> FLAC level 5

LINE UP: Ronnie James Dio (voc)/Tony Iommi (g)/Geezer Butler (b)/Vinnie Appice (d)
/Geoff Nichols (keyb)

Track listing:

DISC 1
1. E5150 (intro)
2. Mob Rules
3. Computer God
4. Children of the Sea
5. Time Machine
6. War Pigs
7. I
8. Die Young
9. Guitar Solo / Warning (Jam version) /    Jam / Sabbath Bloody Sabbath (Jam        version) / Guitar Solo II / Orchid
10. Black Sabbath

DISC 2
1. Master of Insanity
2. After All (The Dead)
3. Drum Solo
4. Iron Man
5. Heaven and Hell
ENCORES:
6. Neon Knights
7. Paranoid
8. Heaven and Hell (reprise)
9. Outro (Laguna Sunrise)

Download this bootleg here
               

FLAC: Black Sabbath live in Manchester 1989 - 1CD - September 6 - soundboard

Black Sabbath
1989-09-06*
Manchester Apollo
Manchester, UK
BBC 'In Concert' Pre-FM master
FLAC

Running time:
58.04

Lineage:
Pre-FM source (unknown)** > Betamax F1 Stereo > CD > Flac

** For further details on the source, check out the really interesting JPG photo also included in this folder.

"01 The Gates Of Hell
02 Headless Cross
03 Neon Knights
04 Children of the Sea
05 Die Young
06 Iron Man
07 When Death Calls
08 War Pigs
09 Heaven And Hell
10 Paranoid

There was no pre-fM Tony Martin era Sabbath in circulation until today. Now, we finally have a Martin era recording that can stand proud alongside Worcester '83, Asbury Park '75, and Boston '92.

Download this bootleg here
                 

FLAC: Black Sabbath live in San Antonio 1986 - 1CD - April 18 - soundboard

Artist: Black Sabbath
Title: Ray Gillen Years (short version)
Date: 18th April 1986
Location: Convention Center Arena (a.k.a. Hemisfair Park Arena), San Antonio, TX, USA
Source:  FM (Westwood One)
Rating:  10/10

Trade > CDr > CDnGo > WAV > Flac Frontend > Flac

Comments:
Some versions of this show includes the "Eternal Idol" demos (with Ray Gillen rather than Tony Martin) and a slightly different running order.

Line Up:
Tony Iommi - Guitar
Ray Gillen - Vocals
Dave Spitz - Bass
Eric Singer - Drums
Geoff Nicholls - Keyboards

Artwork is included.

Track Listing
Danger Zone
War Pigs
Heart Like A Wheel
Sweet Leaf
Black Sabbath
Neon Knights

Download this bootleg here
                     

FLAC: Black Sabbath live in Drammen 1983 - 2CD - August 18

Black Sabbath
1983 08 18
Norway, Drammen, Drammenshallen
From "Born Again for The First Time" bootleg.

Tracklist
Stonehenge
Children Of The Grave
Hot Line
War Pigs
Born Again
Supernaut
Drum Solo
Rock N Roll Doctor
Disturbing The Priest
Digital Bitch
Black Sabbath
Zero The Hero
Guitar Solo
Iron Man
Smoke On The Water
Paranoid

Download this bootleg here
                     

FLAC: Black Sabbath live in London 1981 - 2CD - January 20

Black Sabbath
1981-01-20
Hammersmith Odeon
London, England, UK
Excellent AUD recording
'Holy War' 2-CD bootleg (Metal Sword Records MS CD 022/23, released in 2000)
Track order corrected
FLAC

Running time:
95:05 min

Artwork:
Included

Tracklist (track order corrected):
101 Supertzar (Intro Tape) (01:31)
102 War Pigs (07:29)
103 Neon Knights (04:59)
104 N.I.B. + Drum Solo (05:33)
105 Children Of The Sea (06:36)
106 Sweet Leaf (08:06)
107 Lady Evil (04:24)
201 Black Sabbath (09:54)
202 Heaven And Hell (11:23)
203 Iron Man (07:21)
204 Guitar Solo (12:53)
205 Die Young (04:14)
206 Paranoid (04:58)
207 Children Of The Grave (05:46)

Download this bootleg here
                     

FLAC: Black Sabbath live in Tokyo 1980 - 1CD - November 18

BLACK SABBATH
Venue: Nakano Sun Plaza
City: Tokyo, Japan
Date: November 18th,1980

Tarantula label silver CD > EAC > TLH (FLAC level 8)

1. SE ~ Supertzar
2. War Pigs
3. Neon Knights
4. N.I.B.
5. Children Of The Sea
6. Sweet Leaf
7. Drums Solo
8. Sweet Leaf reprise
9. Lady Evil
10. Black Sabbath
11. Heaven And Hell
12. Iron Man
13.Announcement In English
14. SE ~ Announcement In Japanese

Download this bootleg here
                 

FLAC: Black Sabbath live in Hartford 1980 - 1CD - August 10 - soundboard

Black Sabbath Hartford Civic Center Hartford CT USA August 10th 1980
Black and Blue a Special 90 Minute K.B.F.H. FM Broadcast
KBFH Pre fm LP'S to CDR Clone From the Krw_co Collection
Aired September 14th 1980

Lineage Pre FM LP's to CDR Clone to EAC Secure Mode to Wav 16/44.1 to TLH Flac Level 8

THE BAND
Ronnie James Dio Vocals
Tony Iommi Guitar
Geezer Butler Bass
Bill Ward Drums
Geoff Nicholls Keyboards

SET LIST
1 KBFH Intro Supertzar
2 War Pigs
3 Neon Knights
4 Children of the Sea
5 Heaven and Hell
6 Die Young
7 Ad for the show

Download this bootleg here
                       

FLAC: Black Sabbath live in Abilene 1978 - 1CD - December 7 - soundboard

Artist: Black Sabbath
Date: December 7th, 1978
Location: Abilene, Texas
Venue: Taylor County Coliseum
Label: Aces High Sound Production
Ttile: Shock Wave Over Texas
Source: SB
Format: FLAC
CD's: 1
Artwork: Yes
Size: 300 MB
Length: 46:55:12

SETLIST:
01. Symptom Of The Universe
02. Snowblind
03. War Pigs
04. Never Say Die
05. Black Sabbath
06. Shock Wave
07. Dirty Women
08. Rock 'N' Roll Doctor

Download this bootleg here
                   

FLAC: Black Sabbath live in Nashville 1978 - 2CD - November 19

Black Sabbath
1978-11-19
Municipal Auditorium,Nashville,USA
Audience

The band:
Bill Ward-Drums
Tony Iommi-Guitar
Geezer Butler-Bass
Ozzy Osbourne-Vocals

Tracklist:
01 Supertzar
02 Symptom Of The Universe
03 Snowblind
04 War Pigs
05 Never Say Die
06 Fairies Wear Boots
07 Black Sabbath
08 Shock Waves
(CD/Tape Flip Edit At 46:06)
09 Dirty Women
10 Rock And Roll Doctor
11 Drum Solo
12 Jam & Guitar Solo
13 Electric Funeral
14 Iron Man
15 Children Of The Grave
16 Paranoid intro tape cuts off

Download this bootleg here
                 

FLAC: Black Sabbath live in Philadelphia 1978 - 2CD - August 29

Black Sabbath
1978-08-29
The Spectrum
Philadelphia, PA
AUD Recording
FLAC

Running time:
87:03 min

Artwork:
Included

01. Supertzar

02. Symptom Of The Universe

03. War Pigs

04. Snowblind

05. Never Say Die

06. Black Sabbath

07. Dirty Women


08. Rock 'N' Roll Doctor

09. Drum Solo

10. Guitar Solo I

11. Guitar Solo II

12. Electric Funeral

13. Iron Man

14. Fairies Wear Boots

15. Children Of The Grave

16. Paranoid

Download this bootleg here
                     

FLAC: Black Sabbath live in Lund 1977 - 1CD - April 21

Black Sabbath
Lund, Sweden
April 21, 1977

Symptom Of The Universe
Snowblind
War Pigs
Black Sabbath
Dirty Women / drum solo
Rock N Roll Doctor
guitar solo
Electric Funeral
N.I.B.
Gypsy
Paranoid
Children Of The Grave

Download this bootleg here
             

FLAC: Black Sabbath live in Niagara Falls 1976 - 2CD - December 10

BLACK SABBATH
CONVENTION CENTER
NIAGARA FALLS, NY (USA)
DECEMBER 10, 1976

UNKNOWN AUDIENCE ANALOG>CDR>EAC>FLAC

SET LIST:

DISC ONE:

1:  SYMPTOM OF THE UNIVERSE
2:  SNOWBLIND
3:  ALL MOVING PARTS STAND STILL
4:  WAR PIGS
5:  GYPSY
6:  BLACK SABBATH
7:  MEGALOMANIA

DISC TWO:

1:  DIRTY WOMEN
2:  DRUM SOLO (CUT)
3:  GUITAR SOLO
4:  ROCK AND ROLL DOCTOR
5:  JAM
6:  IRON MAN
7:  CHILDREN OF THE GRAVE
8:  SUPERNAUT INTRO/PARANOID

A rowdy audience with some hilarious commentary near the recorder at times.

Download this bootleg here
                   

FLAC: Black Sabbath live in Pittsburgh 1976 & 1978 - 1CD - December 8 & September 2 - soundboard

Black Sabbath
1977 & 1978 British Biscuit

PRE FM REEL > CDR > WAV (EAC) > FLAC
Transfer by Joe Fierce
                             
Broadcast 1977-01-16:
1. Symptom of the Universe
2. War Pigs
3. Gypsy
4. Children of the Grave
                             
Broadcast 1978-09-17:
5. Snowblind
6. Black Sabbath Introduction
7. Black Sabbath
8. Iron Man
9. Paranoid
                             
I stole these reels from a radio station vault in southern Illinois that I had access to back in college. I did the transfers with a Teac A-2340R reel machine straight to my Phillips CD burner. I have no information on the actual show dates, the reels only came marked with the broadcast dates, which I have included. The 1977 reel had a cue sheet, which I scanned and included as well. The sound quality on these is incredible. This is the best Black Sabbath stuff that I have not seen in circulation. Enjoy...


Actual show dates provided by brimstone:

Tracks 1-4 1976-12-08 Civic Arena, Pittsburgh, PA
Tracks 5-8 1978-09-02 Civic Arena, Pittsburgh, PA

Download this bootleg here
                     

FLAC: Black Sabbath live in New York 1976 - 2CD - December 6

Black Sabbath
1976-12-06
Madison Square Garden
New York City, NY, USA
Audience recording
"Rock 'n' Roll Gypsy" 2-CD silver bootleg (MS CD 057/58, 2001 Metal Sword Records, USA)
Artwork says "Original master recording"
FLAC

Running time:
84.56 min

Tracklist:

Disc 1 (41:21)
101 Supertzar, 2:35
102 Symptom of the universe, 4:46
103 Snowblind, 6:15
104 All moving parts (stand still), 7:03
105 War pigs, 7:31
106 Gypsy, 5:24
107 Black sabbath, 7:45

Disc 2 (43:35)
201 Dirty women, 7:36
202 Drumsolo, 6:16
203 Guitar solo, 5:40
204 Rock 'n' roll doctor, 3:12
205 Guitar solo, 1:06
206 Electric funeral, 3:07
207 Iron man, 8:04
208 Children of the grave, 4:49
209 Paranoid, 3:44

Line-up:
Ozzy Osbourne – Vocals
Tony Iommi – Guitar
Geezer Butler – Bass
Bill Ward – Drums
Jezz Woodruffe – Keyboards

Download this bootleg here
                 

FLAC: Black Sabbath live in Sydney 1974 - 2CD - November 10

Black Sabbath
1974-11-10
Hordern Pavilion
Sydney, Australia
AUD recording
Tape gen unknown
Bolandos' CDR
FLAC

Running time:
88:34 min

Tracklist:
DISC 1
01 - Tomorrow's Dream (03:46)
02 - Sweet Leaf (06:09)
03 - Killing Yourself To Live (06:15)
04 - War Pigs (08:46)
05 - Snowblind (05:22)
06 - Sabbra Cadabra (05:47)
07 - Improvisation I (02:15)
08 - Improvisation II (04:58)
09 - Improvisation III (02:18)

DISC 2
01 - Orchid (01:37)
02 - Improvisation (03:23)
03 - Sometimes I'm Happy (03:14)
04 - Drums Solo (05:05)
05 - Supernaut (02:00)
06 - Iron Man (06:08)
07 - Improvistion II (06:26)
08 - Sabbra Cadabra (Reprise) (02:15)
09 - Guitar Solo (03:02)
10 - Embryo + Children Of The Grave (05:30)
11 - Paranoid (04:20)

Download this bootleg here
                   

FLAC: Black Sabbath live at Cal Jam Festival 1974 - 1CD - April 6 - soundboard

BLACK SABBATH
Cal Jam Festival
Ontario Motor Speedway
California
April 6, 1974

Soundboard Recording(unedited version) (released track removed)
Maxell MX-90 metal-particle cassette(rec'd in trade(No Gen known), 20-25 years old)>
Playback on JVC TD-595 DECK>
AIWA XC-RW700 Standalone burner>
EAC>FLAC>YOU

OZZY - VOCALS
TONY IOMMI - GUITAR
BILL WARD - DRUMS
GEEZER BUTLER - BASS

1.TOMMOROW'S DREAM
2.SWEET LEAF
3.KILLING YOUR SELF TO LIVE
4.WAR PIGS
5.SNOWBLIND
6.SABBRA CADABRA(BEGINS)
7.TONY SOLO
8 BILL SOLO 1
9.BILL SOLO 2
10.SUPERNAUT
11.IRON MAN
12. GUITAR/ORCHID/SABBRA CADABRA(ENDS)
13.PARANOID
14.EMBRYO
  CHILDREN OF THE GRAVE (official track removed)

Download this bootleg here
                   

FLAC: Black Sabbath live in Tucson 1972 - 1CD - March 16

BLACK SABBATH TUCSON COMMUNITY CENTER CONVENTION HALL TUCSON ARIZONA 3-16-1972
ANALOG MASTER TO CDR CLONE  KRW_CO TRANSFER

LINEAGE AUDIENCE ANALOG MASTER TO CDR THE CDR'S CAME AS 2 TRACKS ONLY TO EAC/WAV
TO AUDIO CLEANING LAB FOR TAPE FLIP SPLICE AND TRACK MARKS ONLY
KRW TRANSFER TO CDR TO EAC TO TLH FLAC LEVEL 8

NO EQ OR OTHER TAMPERING

THE BAND
TONY IOMMI GUITAR
BILL WARD DRUMS
GEEZER BUTLER BASS
OZZY OSBOURNE VOCALS

SETLIST
1 N.I.B.
2 TOMORROWS DREAM
3 WAR PIGS
4 SWEET LEAF
5 IRON MAN
6 SNOWBLIND
7 WICKED WORLD (WITH ORCHID/GUITAR SOLO/DRUM SOLO/JAM) (TAPE FLIP SPLICE AT 46:48 REAL TIME OR 8:04 TRACK TIME)
8 CHILDREN OF THE GRAVE
9 PARANOID
10 FAIRIES WEAR BOOTS

MANY THANKS GO TO THE TAPER BOB G.

Download this bootleg here
                     

FLAC: Black Sabbath live in Philadelphia 1971 - 1CD - April 2

Black Sabbath 1971-04-02 audience
Philadelphia, Pennsylvania, USA - The Spectrum
Rising Sun "The Evil Has Landed"

lineage - silver > EAC wav > TLH flac 8

set list:
N.I.B
war pigs-intro
war pigs
black sabbath
iron man
wicked world-guitar solo-orchid
paranoid

art and md5 inclded

notes:
art work has incorrect date, and track listing
paranoid has 4 minutes of silence after the song

Download this bootleg here
                   

FLAC: Black Sabbath live in Portland 1970 - 1CD - November 7

Black Sabbath University of Maine @ Portland Sullivan Gymnasium
Portland Maine November 7th 1970 A Joe Maloney Reel to Reel Master
Transferred and Presented by Krw_co

Lineage Audience Reel to Reel Master to CDR Krw Transfer to
EAC Secure Mode to Audio Cleaning Lab for Track Marks and Edits
to WAV to TLH Flac Level 8 No EQ or Other Tampering

THE BAND
Bill Ward Drums
Tony Iommi Guitar
Geezer Butler Bass
Ozzy Osbourne Vocals

SET LIST
1 Intro/Paranoid
2 N.I.B.
3 War Pigs
4 Behind The Wall Of Sleep
5 Iron Man
6 Hand Of Doom
7 Faries Wear Boots

Download this bootleg here
                   

FLAC: Black Sabbath live in Montreux 1970 - 1CD - August 31 - soundboard

Black Sabbath - Montreux 1970 FLAC

GENRE: Hard Rock | Heavy Metal
FORMAT: Lossless (Flac)
SIZE: 280 mb (3% Recovery)
Cover incl.

This is one of the best soundboard recordings of 1970. Show was recorded at Montreux Casino, Montreux, Switzerland in August 31, 1970.

Total Time: 51:46

1. Intro (1:23)
2. Paranoid (3:12)
3. N.I.B. (6:38)
4. Behind The Wall Of Sleep (6:47)
5. Iron Man (6:12)
6. War Pigs (8:34)
7. Fairies Wear Boots (9:21)
8. Hand Of Doom (9:38)

Download this bootleg here
                 

Tuesday, July 4, 2017

NEW: Black Sabbath live in Newport 1994 - 1DVD - April 14

BLACK SABBATH
Leisure Center
Newport, England, UK
April 14, 1994

Lineage: unknown gen VHS>VIDEO TS (using ClickToDVD)>DVD-R>DVDShrink(lossless extraction)>VIDEO TS

Band:
Tony Iommi
Geezer Butler
Tony Martin
Bobby Rondinelli
with Geoff Nicholls

Tracklist (1:26:52):
Time Machine (cuts in)
Children Of The Grave
Children of the Sea
The Mob Rules
Into The Void
Anno Mundi
Black Sabbath
Neon Knights
Psychophobia
The Wizard
Cross Of Thorns
Symptom Of The Universe
Rondinelli solo
Headless Cross
Paranoid
Iron Man
Sabbath Bloody Sabbath (cuts out)

Notes: Another from the Gary's Black Sabbath batch, this is an interesting amateur video, shot the day after the officially
released "Cross Purposes Live" was filmed. On this date, Tony Martin is fully feeling the effects of being sick, and is forced
to sing in a much lower register, resulting in something of a unique performance. One song is dropped from the setlist (I Witness),
and Tony makes a valiant effort to give the paying customers their money's worth. This is fairly generated, but, extremely watchable
for fans of the band and tour - sound is typical '90s VHS. This was acquired in NTSC format, so, it made the transition from PAL
before I received it.

Download part 1 here
Download part 2 here
Download part 3 here
                       

NEW: Black Sabbath live in Tokyo 1994 - 1DVD - March 27

Black Sabbath
1994-03-27
Shinyuku Koseinekin Hall
Tokyo, Japan
audience recording

AUDIENCE:
Audio:7 / Video:6
Running time:
90:21 min
Artwork:None


Tracklist:

Supertzar (Intro Tape) (01:41)
Time Machine (04:29)
Children Of The Grave (05:10)
Children Of The Sea (06:44)
I Witness (05:39)
The Mob Rules (03:43)
Into The Void (07:05)
Psychophobia (03:12)
Black Sabbath (07:59)
Neon Knights (05:23)
The Wizard (04:41)
Cross Of Thorns (05:15)
Drums Solo (06:48)
Headless Cross (05:22)
Guitar Solo (03:10)
Paranoid (02:34)
Heaven And Hell (Reprise) (01:12)
Iron Man (03:55)
Sabbath Bloody Sabbath (06:20)

EXTRAS:creating the tv crimes video!!

Line-up:
Tony Iommi - Guitar
Tony Martin - Vocals
Geezer Butler - Bass
Bobby Rondinelli - Drums
Geoff Nicholls - Keyboards


Video Attribute :
 Video compression mode : MPEG-2
 TV system : 525/60 (NTSC)
 Aspect Ratio : 4:3
 Display Mode : reserved
 Source picture resolution : 720x480
 Frame Rate : 29.97
 Source picture letterboxed : Not letterboxed
 Bitrate : 3.67Mbps

Audio Attribute :
 Audio Coding mode : MPEG-1 or MPEG-2 without extension bitstream
 Sampling Rate : 48kHz
 Audio application mode : Not specified
 Number of Audio channels : 2
 Bitrate : 256 Kbps
 Number of Audio streams : 0

Download part 1 here
Download part 2 here
Download part 3 here
Download part 4 here
                       

Thursday, June 15, 2017

NEW: Ozzy Osbourne live in Buenos Aires 2008 - 1DVD - March 30 - pro-shot

Ozzy Osbourne - 2008-03-30 - Buenos Aires, AR
(DVDfull pro-shot)

System: NTSC
Location: Buenos Aires, Argentina
Venue: Quilmes Rock Festival
Date: 30th March 2008
Size: 4.18 GB
Label: Showtime
Chapters: Yes
Menu: Yes
Artwork: Yes, included

Video Attributes:
Video compression mode: MPEG-2
TV system: 525/60 (NTSC)
Aspect Ratio: 4:3
Display Mode: Both Pan&scan and Letterbox
Source picture resolution: 720x480 (525/60)
Frame Rate: 30.00
Source picture letterboxed: Not letterboxed
Bitrate: 5.64Mbps

Audio Attributes:
Audio Coding mode: Dolby Digital
Sampling Rate: 48kHz
Audio application mode: Not specified
Number of Audio channels: 2
Bitrate: 384 Kbps


01 - Intro
02 - I Don't Wanna Stop
03 - Bark At The Moon
04 - Suicide Solution
05 - Mr. Crowley
06 - Not Going Away
07 - War Pigs
08 - Road To Nowhere
09 - Crazy Train
10 - Zakk Wylde Solo
11 - Iron Man
12 - I Don't Know
13 - Here for You
14 - I Don t Want to Change the World
15 - Mama I m Coming Home
16 - Paranoid

Download part 1 here
Download part 2 here
Download part 3 here
Download part 4 here
Download part 5 here
                 

RE-UP: Ozzy Osbourne live in Philadelphia 1989 - 1DVD - June 4 - pro-shot

Show or Bootleg Title:
Ozzy - Live in Philly '89 (Snivlle Remastered Edition) REV. III (Final Attempt)

Show Venue:
Tower Theatre, Philadelphia

Source:
Video - Pro Shot DVD

Video Quality/Production Info:
Quality: A (9/10)

Format:
NTSC

Set List:
I Don't Know
Flying High Again
Mr. Crowley
Shot In The Dark
Bloodbath In Paradise
Guitar Solo
Sweet Leaf/War Pigs
Tattooed Dancer
Drum Solo
Miracle Man
Suicide Solution
Iron Man
Crazy Train
Paranoid

Checksums or Footprints:
2c8bd80a44768d8581b5429dcad0ff2a *VIDEO_TS.BUP
2c8bd80a44768d8581b5429dcad0ff2a *VIDEO_TS.IFO
05e871cacbf751ed65b6a51433859201 *VIDEO_TS.VOB
17fbf253bbdc2066996c89645afdc211 *VTS_01_0.BUP
17fbf253bbdc2066996c89645afdc211 *VTS_01_0.IFO
4cc8ac732f4eecd4e188213af2204be3 *VTS_01_0.VOB
58fdc1d9c807549589735791642c8738 *VTS_01_1.VOB
d67ee11b6dce79994f2d412c40bb1028 *VTS_01_2.VOB
09302c9bca1d09f8096a541bb5afae1e *VTS_01_3.VOB
6660d3c30816c31c55b29585b048ae67 *VTS_01_4.VOB
8279c30cddc11134a10fe8f858cc3a05 *VTS_01_5.VOB
bb40fa5cb9f9d01f4a828a2437fea725 *VTS_02_0.BUP
bb40fa5cb9f9d01f4a828a2437fea725 *VTS_02_0.IFO
471fdac3ece8b6a77075edb20abb1990 *VTS_02_1.VOB

Ozzy Osbourne: Live In Philly at the Philadelphia Tower Theatre - June 4 1989 (PPV Pro Shot)

A Snivlle Remastered Edition - Rev. III

VIDEO QUALITY: (9/10) Excellent remastered VHS transfer. Originally, the colors were somewhat "washed out" looking. Typical VHS grain and flicker were especially noticeable on the distant shots. This is no longer the case. The picture quality of this show comes very close to that of a quality laser disc transfer.

AUDIO QUALITY: (9/10) Excellent stereo sound with good balance and dynamic range.

LINEAGE: PPV Broadcast >> VHS (HQ) Master >> SA DVD-R >> DVD Decrypter/ Elementary Streams >> Professional-grade video editing software and filters >> CCE 2.67 SP
DVD Authored: Chaptered by song and features a nice motion menu.
VIDEO: NTSC 29.7 FPS, MPEG-2 720X480 @ 6630 kbps (Non-interlaced) - Top Field First
AUDIO: Dolby 2.0 @ 320 Kbps
RUNNING LENGTH: 1 hr. 25 min.

This release recently underwent the process of being remastered with Professional-grade video editing software. The incredible NeatVideo filter was used to denoise and apply high resolution enhancement to the footage. NeatVideo goes far beyond the capabilities of most freely available denoising filters. It uses a series of computationally precise algorithms that enable it to apply 'intelligent sharpening' without inducing any unwanted halo-like effects. The final product does not result in softened imagery.

The original source not only had a considerable degree of VHS noise, it also was very "washed-out" looking. This is no longer the case. Black levels were increased by 7 percent (without affecting white levels and the middle gamma color range). General color and contrast corrections were applied, giving skin tones and other elements a more natural appearance. Color saturation was increased by 25 percent to bring out richer color vibrancy in the stage lighting, clothing colors, etc.

The edited footage was then frame-served from within the NLE (non linear editer) directly to CCE 2.67 SP and encoded at a high bitrate of 6630 kbps with advanced vertical filtration and high quantization enabled. Unless you are lucky enough to find a digital transfer or a Master SVHS dub from off of the original broadcaster's reel, I believe that you will find that this version is one of the best.

To maintain the highest picture and sound quality possible, it was necessary to cut some of the non-essential material. The pre-show footage and also the subsequent interview were removed from this release. I have plans of incorporating the footage that has been cut with (3) complete Ozzy videos as a "Bonus" disc sometime in the future.

This release has undergone extensive digital processing. This release is the 3rd revision of the project. The first two encodings of the concert looked great, but I wanted to make sure that it reached optimum restoration results. The PC that was used to complete this project is only a 3.06 Ghz. P4 w/ HT and 1 GB of Rambus memory. The video processing, in particular, was very CPU intensive and took a considerable length of time; about 86 hours in total. It is my sincere wish that my all of my fellow traders will enjoy this newly "Remastered Edition".

Many thanx to Steinar for the source.

Ozzy Osbourne - Vocals
Zakk Wylde - Guitars
Geezer Butler - Bass
Randy Castillo - Drums

It is an unfortunate fact of "video-geek" life that there are only 240 lines of resolution inherent in VHS recordings. This number can obviously not compare to the 540 lines of resolution seen in commercial DVDs. The motivation behind all "Snivlle Remastered Edition" DVDs is not to compete with commercial DVD quality; rather, it is to get older VHS footage as close as possible to the quality of SVHS and Laser Disc.

Download part 1 here
Download part 2 here
Download part 3 here
Download part 4 here
Download part 5 here
                         

Tuesday, May 30, 2017

NEW: Dio live in Fort Wayne 1998 - 1DVD - June 11

DIO
Piere's Entertainment Center
Fort Wayne, Indiana, USA
June 11, 1998

Band:
Ronnie James Dio
Tracy G
Larry Dennison
Scott Warren
Simon Wright

Lineage:unknown (but certainly low) gen VHS>.avi>premiere edit>VIDEO TS (using Ulead)>DVD-R>DVDShrink (lossless extraction)>VIDEO TS

Tracklist (1:35:58)

Intro / Evilution
Straight Through The Heart
Don't Talk To Strangers
Holy Diver
Heaven and Hell
Childern of the Sea
Stand Up and Shout
Shame on the Night
Mistreated
Catch The Rainbow / Tracy G solo
The Last In Line
Rainbow in the Dark
Neon Knights
Man on the Silver Mountain / Long Live Rock & Roll
We Rock

Notes: Another in a box of purchased VHS tapes, this one looks pretty low generation and is very well shot; I converted this
DVD on July 28, 2013. This is Dio in his wilderness years, putting in a powerful and intense performance. Tracy G gets a lot
of guff from fans, and I don't think he was the greatest writer, but, he is undoubtedly an interesting guitar player and I
enjoy hearing his take on the classics. This Dio band is very different from the one that was started 15 years earlier, but,
this is a solid performance and a very well shot video from an underrated time period.

Download part 1 here
Download part 2 here
Download part 3 here
Download part 4 here
Download part 5 here
Download part 6 here
Download part 7 here
                       

Tuesday, May 23, 2017

NEW: Dio live in Milwaukee 1994 - 1DVD - July 10

Dio
Summerfest Grounds, Milwaukee, WI, USA 1994-7-10
Setlist

    Jesus Mary & The Holy Ghost
   Strange Highways
   Don't Talk to Strangers
   Pain
   Guitar Solo
   The Mob Rules
   (Black Sabbath cover)
   Holy Diver
   Man on the Silver Mountain
   (Rainbow cover)
   Drum Solo
   Heaven and Hell
   (Black Sabbath cover)
   Evilution
   Give Her the Gun
   Stand Up and Shout
   The Last in Line
   Rainbow in the Dark
   We Rock
   Here's to You



General
Complete name                  : H:\DIO-1994.7.10.Summerfest Grounds, Milwaukee, WI, USA-Vers JAYTOR 2112 Upgrade Audio\VIDEO_TS\VTS_01_1.VOB
Format                         : MPEG-PS
File size                      : 1 024 MiB
Duration                       : 22mn 53s
Overall bit rate mode          : Variable
Overall bit rate               : 6 255 Kbps

Video
ID                             : 224 (0xE0)
Format                         : MPEG Video
Format version                 : Version 2
Format profile                 : Main@Main
Format settings, BVOP          : Yes
Format settings, Matrix        : Custom
Format settings, GOP           : M=3, N=15
Duration                       : 22mn 53s
Bit rate mode                  : Variable
Bit rate                       : 5 747 Kbps
Maximum bit rate               : 9 586 Kbps
Width                          : 704 pixels
Height                         : 480 pixels
Display aspect ratio           : 4:3
Frame rate                     : 29.970 fps
Standard                       : NTSC
Color space                    : YUV
Chroma subsampling             : 4:2:0
Bit depth                      : 8 bits
Scan type                      : Interlaced
Scan order                     : Top Field First
Compression mode               : Lossy
Bits/(Pixel*Frame)             : 0.567
Time code of first frame       : 00:00:00:00
Time code source               : Group of pictures header
Stream size                    : 941 MiB (92%)
Color primaries                : BT.601 NTSC
Transfer characteristics       : BT.601
Matrix coefficients            : BT.601

Audio
ID                             : 192 (0xC0)
Format                         : MPEG Audio
Format version                 : Version 1
Format profile                 : Layer 2
Duration                       : 22mn 52s
Bit rate mode                  : Constant
Bit rate                       : 384 Kbps
Channel count                  : 2 channels
Sampling rate                  : 48.0 KHz
Compression mode               : Lossy
Delay relative to video        : -67ms
Stream size                    : 62.9 MiB (6%)

Download part 1 here
Download part 2 here
Download part 3 here
Download part 4 here
Download part 5 here
                     

Monday, May 15, 2017

NEW: Ozzy Osbourne live in London 2010 - 1DVD - September 18 - pro-shot

Artist:
Ozzy Osbourne

Show or Bootleg Title:
2010-09-18 Ozzfest, 02 Arena, London, England (Rodders Vers.)

Source:
Video - Pro Shot


Audio/Video Specs:
Video
ID : 224 (0xE0)
Format : MPEG Video
Format version : Version 2
Format profile : Main@Main
Format settings, BVOP : Yes
Format settings, Matrix : Default
Format settings, GOP : Variable
Format settings, picture structure : Frame
Bit rate mode : Variable
Bit rate : 7 661 Kbps
Maximum bit rate : 8 182 Kbps
Width : 720 pixels
Height : 576 pixels
Display aspect ratio : 4:3
Frame rate : 25.000 fps
Standard : PAL
Color space : YUV
Chroma subsampling : 4:2:0
Bit depth : 8 bits
Scan type : Interlaced
Scan order : Top Field First
Compression mode : Lossy
Bits/(Pixel*Frame) : 0.739
Time code of first frame : 00:00:00:00
Time code source : Group of pictures header
Stream size : 836 MiB (82%)
Writing library : TMPGEnc Authoring Works 4 Version. 4.0.7.32
Color primaries : BT.601 PAL
Transfer characteristics : BT.470 System B, BT.470 System G
Matrix coefficients : BT.601

Audio
ID : 189 (0xBD)-160 (0xA0)
Format : PCM
Format settings, Endianness : Big
Format settings, Sign : Signed
Muxing mode : DVD-Video
Bit rate mode : Constant
Bit rate : 1 536 Kbps
Channel(s) : 2 channels
Sampling rate : 48.0 KHz
Bit depth : 16 bits
Stream size : 168 MiB (16%)



Setlist/Chapters:
01. Interviews
02. Let Me Hear You Scream
03. Mr.Crowley
04. I Don't Know
05. Fairies Wear Boots
06. Crazy Train
07. Paranoid


Band:
Ozzy Osbourne - Vocals
Gus G.– Lead Guitar
Adam Wakeman – Keyboards, Rhythm Guitar
Rob "Blasko" Nicholson – Bass
Tommy Clufetos – Drums

Lenght:33.52

Created and edited by Roddershimself

Menu : YES
Chapters : YES
Artwork : YES

Download part 1 here
Download part 2 here
Download part 3 here
                 

NEW: Heaven & Hell live in Bonn 2009 - 1DVD - June 16 - pro-shot

Band: HEAVEN & HELL
Date: June 16, 2009
Venue: Museumsplatz, Bonn (Germany)


01. The Mob Rules
02. Children Of The Sea
03. I
04. Bible Black
05. Time Machine
06. Drum solo
07. Fear
08. Falling Off The Edge Of The World
09. Follow The Tears
10. Die Young
11. Heaven And Hell
12. Neon Knights

Source: DVB-S -> IPBox 350 PVR -> TMPEG DVD Author (no audio/video reencode - added chapters for songs) -> YOU

Download part 1 here
Download part 2 here
Download part 3 here
Download part 4 here
Download part 5 here
                   

NEW: Dio live in San Antonio 1988 - 1DVD - February 5 - pro-shot

DIO Headbangers Ball Dream Evil Live Special MTV Broadcast
Convention Center Arena San Antonio Texas February 5th 1988
VHS Master to DVD From the Krw_co Collection

LINEAGE MTV BROADCAST VHS MASTER TO DVD
KRW TRANSFER ON A PANASONIC STAND ALONE BURNER
WITH MONSTER CABLE FROM A JVC PRO DECK
FILE EXTRACTED USING DVD SHRINK
NO COMPRESSION OR RE ENCODING

THE BAND
Ronnie James Dio vocals
Vinny Appice drums
Jimmy Bain bass
Craig Goldy guitar
Claude Schnell keyboards

SET LIST
Dio Interview
Stand up and Shout
Dio Interview
Dream Evil
Naked in the Rain
Guitar Solo
Naked in the Rain
Dio Interview
Drum Solo
We Rock
Dio Interview

TOTAL TIME 27 min 48 sec

G-SPOT INFO

VIDEO/TV SYSTEM: ntsc 29.97 fps
VIDEO BITRATE: 4232 kbps
ASPECT RATIO: 4:3
SYS BITRATE: 10080 kb/s vbr
AUDIO CODEC: ac3
AUDIO BITRATE: 256 kbps 48000hz stereo

PLEASE DONT POST THIS ON ANY OTHER TRACKERS.
AND PLEASE DONT ALTER THIS RECORDING IN ANY WAY.
THANK YOU,AS ALWAYS ENJOY.CHEERS KRW_CO

bce48810ecd06173df0eeeaf1c06536e *VIDEO_TS.BUP
bce48810ecd06173df0eeeaf1c06536e *VIDEO_TS.IFO
c3d194799435d03a9d6ea4f7c2e66473 *VTS_01_0.BUP
c3d194799435d03a9d6ea4f7c2e66473 *VTS_01_0.IFO
6f877c98227cca2762363e5bd02bb88d *VTS_01_1.VOB

Download this bootleg DVD here
                 

Tuesday, May 9, 2017

NEW: Heaven & Hell live in Broomfield 2007 - 1DVD - April 29

Heaven and Hell (aka Black Sabbath)
Broomfield Events Center
Broomfield, Colorado, USA
April 29, 2007

Band:
Ronnie James Dio
Tony Iommi
Geezer Butler
Vinny Appice
with Scott Warren

Lineage: Canon ZR60 (SD)>.avi (lossless - no reencoding)>Premiere 6.5 (merging of audio and video)>VIDEO TS (using Sony Vegas)>
DVD-R>VIDEO_TS (extracted losslessly using DVDShrink)

Tracklist (1:49:07):
After All (The Dead)
The Mob Rules
Children of the Sea
Lady Evil
I
Sign of the Southern Cross
Voodoo
The Devil Cries
Drum solo (partially from Loudpuppy source)
Computer God
Falling Off The Edge of the World
Shadow of the Wind
Die Young
Heaven and Hell
Neon Knights

Notes: The second of four times that we saw Heaven and Hell; we caught the first show up in Vancouver, uncertain if there would
be an American leg to the tour. Of course, after we'd already booked the trip, they announced the spring American leg of the tour.
So, of course, we were going to see the one in our own backyard, too! This was arguably a better show than the Vancouver one, as
the band had been playing together for about 6 weeks at this point and were much tighter the second time around. To me, I was
astonished that none of the four H&H shows I went to were sold out - didn't everyone realize what an event this was?

Overall, this is pretty well shot - I like shooting in this venue, as it's not huge, and there's a great sight line from the back
center. I also shot this in widescreen and used Sony Vegas to complete the transfer. This was originally intended to be a two-cam
edit; in fact, I've made one, but, Loudpuppy's camera severely malfunctioned this night, and left the video image grainy and full
of digital lines. I did use Loudpuppy's footage, however, for the drum solo, when I was changing my DV tapes; there's a little
hiccup at the end of the drum solo, where the very end repeats (can't remember what happened there in my editing). I've done a
variety of transfers of this footage over the years since the show; this version was converted to DVD DL on September 14, 2014.
As with all my films, my wife assisted at unremembered spots during the show, when I had to use the restroom. My son was also present
for this show, as were Loudpuppy and my oldest friend Ricky.

Download part 1 here
Download part 2 here
Download part 3 here
Download part 4 here
Download part 5 here
                       

Monday, May 8, 2017

RE-UP: Dio live in Lund 1983 - 1DVD - November 16

DIO
16 November 1983
Olympen Lund, Sweden

1) Stand Up An Shout
2) Straight Through The Heart
3) Shame On The Night
4) Children Of The Sea
5) Holy Diver
6) Drum Solo
7) Heaven And Hell ~ Guitar Solo ~ Heaven And Hell continued
8) Rainbow In The Dark
9) Man On The Silver Mountain
10) Starstruck ~ Man On The Silver Mountain continued
11) Don't Talk To Strangers (cuts out)

info vob 1:
ormat                                   : MPEG-PS
File size                                : 1 023 MiB
Duration                                 : 15mn 50s
Overall bit rate mode                    : Variable
Overall bit rate                         : 9 033 Kbps

Video
ID                                       : 224 (0xE0)
Format                                   : MPEG Video
Format version                           : Version 2
Format profile                           : Main@Main
Format settings, BVOP                    : Yes
Format settings, Matrix                  : Custom
Format settings, GOP                     : M=3, N=12
Format settings, picture structure       : Frame
Duration                                 : 15mn 50s
Bit rate mode                            : Variable
Bit rate                                 : 8 597 Kbps
Maximum bit rate                         : 9 579 Kbps
Width                                    : 704 pixels
Height                                   : 576 pixels
Display aspect ratio                     : 4:3
Frame rate                               : 25.000 fps
Standard                                 : PAL
Color space                              : YUV
Chroma subsampling                       : 4:2:0
Bit depth                                : 8 bits
Scan type                                : Interlaced
Scan order                               : Top Field First
Compression mode                         : Lossy
Bits/(Pixel*Frame)                       : 0.848
Time code of first frame                 : 00:00:01:23
Time code source                         : Group of pictures header
GOP, Open/Closed                         : Open
Stream size                              : 974 MiB (95%)
Color primaries                          : BT.601 PAL
Transfer characteristics                 : BT.470 System B, BT.470 System G
Matrix coefficients                      : BT.601

Audio
ID                                       : 189 (0xBD)-128 (0x80)
Format                                   : AC-3
Format/Info                              : Audio Coding 3
Mode extension                           : CM (complete main)
Format settings, Endianness              : Big
Muxing mode                              : DVD-Video
Duration                                 : 15mn 50s
Bit rate mode                            : Constant
Bit rate                                 : 256 Kbps
Channel(s)                               : 2 channels
Channel positions                        : Front: L R
Sampling rate                            : 48.0 KHz
Compression mode                         : Lossy
Delay relative to video                  : -272ms
Stream size                              : 29.0 MiB (3%)

Download part 1 here
Download part 2 here
Download part 3 here
Download part 4 here
Download part 5 here
                     

RE-UP: Ozzy Osbourne live in Camden 2003 - 1DVD - August 7 - pro-shot

Ozzy Osbourne
Ozzfest
Tweeter Waterfront
Camden,New Jersey
7th August 2003

This is taken from the in-house feed wich means there are almost no sound from the audience and no official stuff are on here..not yet anyhow


Setlist:

War Pigs
Mr. Crowley
I Don't Know
Flying high again
Goodbye To Romance
Iron Man
Sweet Leaf
Children Of The Grave
Suicide Solution
Guitar Solo
I Don't Want To Change The World
Road To Nowhere
Crazy Train
Mama I'm Coming Home
Paranoid

Video: MPEG-2 NTSC 720x480
Audio: AC3
Time: 90min

Download part 1 here
Download part 2 here
Download part 3 here
Download part 4 here
                   

Thursday, May 4, 2017

NEW: Ozzy Osbourne & Alice Cooper live at Monsters Of Rock 1995 - 1DVD - pro-shot

Alice Cooper & Ozzy Osbourne

City: Sao Paulo
Country: Brazil
Venue: Pacaembu Stadium (Monsters of Rock)
Date: 2/9/95

Menu: Yes
Chapters: Yes
Recording: Pro
Quality: 9
Format: NTSC
Artwork: No

Lineage: I got this from a very good trader from Chile called Alejandro: CHILE>SNAIL MAIL>ARGENTINA>DVD>PC>DIME>YOU>ENJOY!!!

Comments: This is a tv broadcast, the image and sound are very good, not perfect but still more than good!!

SETLIST:

Ozzy Osbourne:
1)Paranoid
2)Desire
3)No More tears
4)I Just Want You
5)I Donґt Want to Change the World
6)Suicide Solution
7)Sabbath Bloody Sabbath
8)Iron man
9)Bark at The Moon
10)Mr. Crowley
11)War Pigs
12)Crazy Train

Alice Cooper:
1)Under My Wheels
2)Billion Dollar Babies
3)No More Mr. Nice Guy
4)Sideshow
5)Desperado
6)Gutter Cats vs. the Jets
7)Feed My Frankenstein
8)Ballad of Dwight Fry
9)Schoolґs Out
10)Elected

PLUS:
1)Megadeth - Symphony of destruction
2)Faith no more - I'm easy

Video attributes:
Stream:
Type: MPEG2
Bitrate: 9260 Mbps
Framerate: 29.970 Hz
Resolution: 720 x 480
Aspect ratio: 4:3

Audio attributes:
Stream:
Type: MPEG-1 Layer 2
Bitrate: 192 Kbps
Number of channels: 2
Sampling Frequency: 48.000Hz.
Sampling Bits: 16

MPEG-2 Program Stream << { 1 vid, 1 aud }
Sys Bitrate: 10080 kb/s VBR

Download part 1 here
Download part 2 here
Download part 3 here
Download part 4 here
Download part 5 here
                         

Wednesday, May 3, 2017

NEW: Dio live in Hollywood 1984 - 1DVD - January 4 - pro-shot

DIO The Palace Hollywood California January 4th 1984  Aired January 14th, 1984
Rock Palace TV Broadcast VHS Master to Dvd from the Krw_co Collection

LINEAGE MONO TV BROADCAST VHS MASTER TO DVD
KRW TRANSFER ON A PANASONIC STAND ALONE BURNER
WITH MONSTER CABLE FROM A JVC PRO DECK
FILE EXTRACTED USING DVD SHRINK
NO COMPRESSION OR RE ENCODING

THE BAND
Ronnie James Dio  vocals
Vinny Appice  drums
Jimmy Bain  bass
Vivian Campbell  guitar

SET LIST
Stand up and Shout
Straight through the heart
Rainbow in the dark
Man on the silver mountain

TOTAL TIME 19 min 15 sec

G-SPOT INFO

VIDEO/TV SYSTEM: ntsc 29.97 fps
VIDEO BITRATE: 4232 kbps
ASPECT RATIO: 4:3
SYS BITRATE: 10080 kb/s vbr
AUDIO CODEC: ac3
AUDIO BITRATE: 256 kbps 48000hz stereo

33325e29edda1336cdffb31bce90a777 *VIDEO_TS.BUP
33325e29edda1336cdffb31bce90a777 *VIDEO_TS.IFO
d0b8e2a499dac634d69e433c0601fcec *VTS_01_0.BUP
d0b8e2a499dac634d69e433c0601fcec *VTS_01_0.IFO
50cf481cee72d85a9343d251e9f38af0 *VTS_01_1.VOB

Download this bootleg DVD here
               

NEW: Black Sabbath "All Hail Black Sabbath" - 1DVD - 1998 MTV Special

1998 MTV Ultra Sound: All Hail Black Sabbath
German MTV broadcast
Metallican VHS master or 1st gen to DVD

Running time:
20.53

Download part 1 here
Download part 2 here 
                 

Thursday, April 27, 2017

NEW: Black Sabbath "1992 South American Tour Compilation" - 1DVD

Black Sabbath
1992-XX-XX
South American Tour Compilation.

Line up:
Tony Iommi-guitars
Ronnie James Dio-vocals
Gezzer Butler-bass
Vinnie Appice-drums
Geoff Nicholls-keyboards

Setlist:
01-TV ad for the 1992 South American Tour
and  Metropolis TV Broadcast from
The Olympia Sao Paulo Brazil June 1992
with the complete live songs Mob Rules and Computer God
Time:11 m. 22 s.

02-MTV Furia Metal Interview with all four 1992
Time:34 m. 16 s.

03-DIO INTERVIEW Sao Paulo 1992 Private Camcorder Master
Time:23 m. 14 s.

04-SABBATH Press Conferencewith all four members at Marksound Plaza
Sao Paulo June 22nd 1992 Marksound Plaza Private Camorder Master
Time:36 m. 58 s.

Total:105min.
Format:NTSC 4:3

Download part 1 here
Download part 2 here
Download part 3 here
Download part 4 here
Download part 5 here