Tuesday, May 23, 2017

NEW: Dio live in Milwaukee 1994 - 1DVD - July 10

Dio
Summerfest Grounds, Milwaukee, WI, USA 1994-7-10
Setlist

    Jesus Mary & The Holy Ghost
   Strange Highways
   Don't Talk to Strangers
   Pain
   Guitar Solo
   The Mob Rules
   (Black Sabbath cover)
   Holy Diver
   Man on the Silver Mountain
   (Rainbow cover)
   Drum Solo
   Heaven and Hell
   (Black Sabbath cover)
   Evilution
   Give Her the Gun
   Stand Up and Shout
   The Last in Line
   Rainbow in the Dark
   We Rock
   Here's to You



General
Complete name                  : H:\DIO-1994.7.10.Summerfest Grounds, Milwaukee, WI, USA-Vers JAYTOR 2112 Upgrade Audio\VIDEO_TS\VTS_01_1.VOB
Format                         : MPEG-PS
File size                      : 1 024 MiB
Duration                       : 22mn 53s
Overall bit rate mode          : Variable
Overall bit rate               : 6 255 Kbps

Video
ID                             : 224 (0xE0)
Format                         : MPEG Video
Format version                 : Version 2
Format profile                 : Main@Main
Format settings, BVOP          : Yes
Format settings, Matrix        : Custom
Format settings, GOP           : M=3, N=15
Duration                       : 22mn 53s
Bit rate mode                  : Variable
Bit rate                       : 5 747 Kbps
Maximum bit rate               : 9 586 Kbps
Width                          : 704 pixels
Height                         : 480 pixels
Display aspect ratio           : 4:3
Frame rate                     : 29.970 fps
Standard                       : NTSC
Color space                    : YUV
Chroma subsampling             : 4:2:0
Bit depth                      : 8 bits
Scan type                      : Interlaced
Scan order                     : Top Field First
Compression mode               : Lossy
Bits/(Pixel*Frame)             : 0.567
Time code of first frame       : 00:00:00:00
Time code source               : Group of pictures header
Stream size                    : 941 MiB (92%)
Color primaries                : BT.601 NTSC
Transfer characteristics       : BT.601
Matrix coefficients            : BT.601

Audio
ID                             : 192 (0xC0)
Format                         : MPEG Audio
Format version                 : Version 1
Format profile                 : Layer 2
Duration                       : 22mn 52s
Bit rate mode                  : Constant
Bit rate                       : 384 Kbps
Channel count                  : 2 channels
Sampling rate                  : 48.0 KHz
Compression mode               : Lossy
Delay relative to video        : -67ms
Stream size                    : 62.9 MiB (6%)

Download part 1 here
Download part 2 here
Download part 3 here
Download part 4 here
Download part 5 here
                     

Monday, May 15, 2017

NEW: Ozzy Osbourne live in London 2010 - 1DVD - September 18 - pro-shot

Artist:
Ozzy Osbourne

Show or Bootleg Title:
2010-09-18 Ozzfest, 02 Arena, London, England (Rodders Vers.)

Source:
Video - Pro Shot


Audio/Video Specs:
Video
ID : 224 (0xE0)
Format : MPEG Video
Format version : Version 2
Format profile : Main@Main
Format settings, BVOP : Yes
Format settings, Matrix : Default
Format settings, GOP : Variable
Format settings, picture structure : Frame
Bit rate mode : Variable
Bit rate : 7 661 Kbps
Maximum bit rate : 8 182 Kbps
Width : 720 pixels
Height : 576 pixels
Display aspect ratio : 4:3
Frame rate : 25.000 fps
Standard : PAL
Color space : YUV
Chroma subsampling : 4:2:0
Bit depth : 8 bits
Scan type : Interlaced
Scan order : Top Field First
Compression mode : Lossy
Bits/(Pixel*Frame) : 0.739
Time code of first frame : 00:00:00:00
Time code source : Group of pictures header
Stream size : 836 MiB (82%)
Writing library : TMPGEnc Authoring Works 4 Version. 4.0.7.32
Color primaries : BT.601 PAL
Transfer characteristics : BT.470 System B, BT.470 System G
Matrix coefficients : BT.601

Audio
ID : 189 (0xBD)-160 (0xA0)
Format : PCM
Format settings, Endianness : Big
Format settings, Sign : Signed
Muxing mode : DVD-Video
Bit rate mode : Constant
Bit rate : 1 536 Kbps
Channel(s) : 2 channels
Sampling rate : 48.0 KHz
Bit depth : 16 bits
Stream size : 168 MiB (16%)



Setlist/Chapters:
01. Interviews
02. Let Me Hear You Scream
03. Mr.Crowley
04. I Don't Know
05. Fairies Wear Boots
06. Crazy Train
07. Paranoid


Band:
Ozzy Osbourne - Vocals
Gus G.– Lead Guitar
Adam Wakeman – Keyboards, Rhythm Guitar
Rob "Blasko" Nicholson – Bass
Tommy Clufetos – Drums

Lenght:33.52

Created and edited by Roddershimself

Menu : YES
Chapters : YES
Artwork : YES

Download part 1 here
Download part 2 here
Download part 3 here
                 

NEW: Heaven & Hell live in Bonn 2009 - 1DVD - June 16 - pro-shot

Band: HEAVEN & HELL
Date: June 16, 2009
Venue: Museumsplatz, Bonn (Germany)


01. The Mob Rules
02. Children Of The Sea
03. I
04. Bible Black
05. Time Machine
06. Drum solo
07. Fear
08. Falling Off The Edge Of The World
09. Follow The Tears
10. Die Young
11. Heaven And Hell
12. Neon Knights

Source: DVB-S -> IPBox 350 PVR -> TMPEG DVD Author (no audio/video reencode - added chapters for songs) -> YOU

Download part 1 here
Download part 2 here
Download part 3 here
Download part 4 here
Download part 5 here
                   

NEW: Dio live in San Antonio 1988 - 1DVD - February 5 - pro-shot

DIO Headbangers Ball Dream Evil Live Special MTV Broadcast
Convention Center Arena San Antonio Texas February 5th 1988
VHS Master to DVD From the Krw_co Collection

LINEAGE MTV BROADCAST VHS MASTER TO DVD
KRW TRANSFER ON A PANASONIC STAND ALONE BURNER
WITH MONSTER CABLE FROM A JVC PRO DECK
FILE EXTRACTED USING DVD SHRINK
NO COMPRESSION OR RE ENCODING

THE BAND
Ronnie James Dio vocals
Vinny Appice drums
Jimmy Bain bass
Craig Goldy guitar
Claude Schnell keyboards

SET LIST
Dio Interview
Stand up and Shout
Dio Interview
Dream Evil
Naked in the Rain
Guitar Solo
Naked in the Rain
Dio Interview
Drum Solo
We Rock
Dio Interview

TOTAL TIME 27 min 48 sec

G-SPOT INFO

VIDEO/TV SYSTEM: ntsc 29.97 fps
VIDEO BITRATE: 4232 kbps
ASPECT RATIO: 4:3
SYS BITRATE: 10080 kb/s vbr
AUDIO CODEC: ac3
AUDIO BITRATE: 256 kbps 48000hz stereo

PLEASE DONT POST THIS ON ANY OTHER TRACKERS.
AND PLEASE DONT ALTER THIS RECORDING IN ANY WAY.
THANK YOU,AS ALWAYS ENJOY.CHEERS KRW_CO

bce48810ecd06173df0eeeaf1c06536e *VIDEO_TS.BUP
bce48810ecd06173df0eeeaf1c06536e *VIDEO_TS.IFO
c3d194799435d03a9d6ea4f7c2e66473 *VTS_01_0.BUP
c3d194799435d03a9d6ea4f7c2e66473 *VTS_01_0.IFO
6f877c98227cca2762363e5bd02bb88d *VTS_01_1.VOB

Download this bootleg DVD here
                 

Tuesday, May 9, 2017

NEW: Heaven & Hell live in Broomfield 2007 - 1DVD - April 29

Heaven and Hell (aka Black Sabbath)
Broomfield Events Center
Broomfield, Colorado, USA
April 29, 2007

Band:
Ronnie James Dio
Tony Iommi
Geezer Butler
Vinny Appice
with Scott Warren

Lineage: Canon ZR60 (SD)>.avi (lossless - no reencoding)>Premiere 6.5 (merging of audio and video)>VIDEO TS (using Sony Vegas)>
DVD-R>VIDEO_TS (extracted losslessly using DVDShrink)

Tracklist (1:49:07):
After All (The Dead)
The Mob Rules
Children of the Sea
Lady Evil
I
Sign of the Southern Cross
Voodoo
The Devil Cries
Drum solo (partially from Loudpuppy source)
Computer God
Falling Off The Edge of the World
Shadow of the Wind
Die Young
Heaven and Hell
Neon Knights

Notes: The second of four times that we saw Heaven and Hell; we caught the first show up in Vancouver, uncertain if there would
be an American leg to the tour. Of course, after we'd already booked the trip, they announced the spring American leg of the tour.
So, of course, we were going to see the one in our own backyard, too! This was arguably a better show than the Vancouver one, as
the band had been playing together for about 6 weeks at this point and were much tighter the second time around. To me, I was
astonished that none of the four H&H shows I went to were sold out - didn't everyone realize what an event this was?

Overall, this is pretty well shot - I like shooting in this venue, as it's not huge, and there's a great sight line from the back
center. I also shot this in widescreen and used Sony Vegas to complete the transfer. This was originally intended to be a two-cam
edit; in fact, I've made one, but, Loudpuppy's camera severely malfunctioned this night, and left the video image grainy and full
of digital lines. I did use Loudpuppy's footage, however, for the drum solo, when I was changing my DV tapes; there's a little
hiccup at the end of the drum solo, where the very end repeats (can't remember what happened there in my editing). I've done a
variety of transfers of this footage over the years since the show; this version was converted to DVD DL on September 14, 2014.
As with all my films, my wife assisted at unremembered spots during the show, when I had to use the restroom. My son was also present
for this show, as were Loudpuppy and my oldest friend Ricky.

Download part 1 here
Download part 2 here
Download part 3 here
Download part 4 here
Download part 5 here
                       

Monday, May 8, 2017

RE-UP: Dio live in Lund 1983 - 1DVD - November 16

DIO
16 November 1983
Olympen Lund, Sweden

1) Stand Up An Shout
2) Straight Through The Heart
3) Shame On The Night
4) Children Of The Sea
5) Holy Diver
6) Drum Solo
7) Heaven And Hell ~ Guitar Solo ~ Heaven And Hell continued
8) Rainbow In The Dark
9) Man On The Silver Mountain
10) Starstruck ~ Man On The Silver Mountain continued
11) Don't Talk To Strangers (cuts out)

info vob 1:
ormat                                   : MPEG-PS
File size                                : 1 023 MiB
Duration                                 : 15mn 50s
Overall bit rate mode                    : Variable
Overall bit rate                         : 9 033 Kbps

Video
ID                                       : 224 (0xE0)
Format                                   : MPEG Video
Format version                           : Version 2
Format profile                           : Main@Main
Format settings, BVOP                    : Yes
Format settings, Matrix                  : Custom
Format settings, GOP                     : M=3, N=12
Format settings, picture structure       : Frame
Duration                                 : 15mn 50s
Bit rate mode                            : Variable
Bit rate                                 : 8 597 Kbps
Maximum bit rate                         : 9 579 Kbps
Width                                    : 704 pixels
Height                                   : 576 pixels
Display aspect ratio                     : 4:3
Frame rate                               : 25.000 fps
Standard                                 : PAL
Color space                              : YUV
Chroma subsampling                       : 4:2:0
Bit depth                                : 8 bits
Scan type                                : Interlaced
Scan order                               : Top Field First
Compression mode                         : Lossy
Bits/(Pixel*Frame)                       : 0.848
Time code of first frame                 : 00:00:01:23
Time code source                         : Group of pictures header
GOP, Open/Closed                         : Open
Stream size                              : 974 MiB (95%)
Color primaries                          : BT.601 PAL
Transfer characteristics                 : BT.470 System B, BT.470 System G
Matrix coefficients                      : BT.601

Audio
ID                                       : 189 (0xBD)-128 (0x80)
Format                                   : AC-3
Format/Info                              : Audio Coding 3
Mode extension                           : CM (complete main)
Format settings, Endianness              : Big
Muxing mode                              : DVD-Video
Duration                                 : 15mn 50s
Bit rate mode                            : Constant
Bit rate                                 : 256 Kbps
Channel(s)                               : 2 channels
Channel positions                        : Front: L R
Sampling rate                            : 48.0 KHz
Compression mode                         : Lossy
Delay relative to video                  : -272ms
Stream size                              : 29.0 MiB (3%)

Download part 1 here
Download part 2 here
Download part 3 here
Download part 4 here
Download part 5 here
                     

RE-UP: Ozzy Osbourne live in Camden 2003 - 1DVD - August 7 - pro-shot

Ozzy Osbourne
Ozzfest
Tweeter Waterfront
Camden,New Jersey
7th August 2003

This is taken from the in-house feed wich means there are almost no sound from the audience and no official stuff are on here..not yet anyhow


Setlist:

War Pigs
Mr. Crowley
I Don't Know
Flying high again
Goodbye To Romance
Iron Man
Sweet Leaf
Children Of The Grave
Suicide Solution
Guitar Solo
I Don't Want To Change The World
Road To Nowhere
Crazy Train
Mama I'm Coming Home
Paranoid

Video: MPEG-2 NTSC 720x480
Audio: AC3
Time: 90min

Download part 1 here
Download part 2 here
Download part 3 here
Download part 4 here